磨坊高品质音乐论坛 - 提供各种无损音乐下载

 

 

搜索
磨坊高品质音乐论坛 - 提供各种无损音乐下载 论坛 高清MV交流区 《A(日文版)》RAINBOW[1080I/335MB/MPG][百度云]
查看: 5876|回复: 86
go

[外文] 《A(日文版)》RAINBOW[1080I/335MB/MPG][百度云] [复制链接]

Rank: 24Rank: 24Rank: 24Rank: 24Rank: 24Rank: 24

UID
2654 
积分
34662 
威望
3244  
磨币
8661  
经典水果老虎机
20062 

版主专用勋章 社区巡警勋章 音乐宗师勋章 SB会员专用勋章 摩羯座

1#
发表于 2011-10-24 21:51 |只看该作者 |倒序浏览 |打印
本帖最后由 changshu008 于 2015-11-10 20:48 编辑

MV名称:A
歌手:RAINBOW
资源格式:MPG




E:\MV\moofeel.com_RAINBOW - A(Japanese Ver.).mpg
  General
    Complete name : E:\MV\moofeel.com_RAINBOW - A(Japanese Ver.).mpg
    Format : MPEG-PS
    File size : 335 MiB
    Duration : 3mn 28s
    Overall bit rate : 13.5 Mbps
    Writing library : encoded by TMPGEnc 4.0 XPress Version. 4.7.8.309
  Video #224
    ID : 224 (0xE0)
    Format : MPEG Video
    Format version : Version 2
    Format profile : Main@High
    Format settings, BVOP : Yes
    Format settings, Matrix : Default
    Format settings, GOP : M=3, N=18
    Duration : 3mn 28s
    Bit rate mode : Variable
    Bit rate : 12.8 Mbps
    Nominal bit rate : 20.0 Mbps
    Width : 1 440 pixels
    Height : 1 080 pixels
    Display aspect ratio : 16:9
    Frame rate : 29.970 fps
    Standard : NTSC
    Color space : YUV
    Chroma subsampling : 4:2:0
    Bit depth : 8 bits
    Scan type : Interlaced
    Scan order : Top Field First
    Bits/(Pixel*Frame) : 0.275
    Stream size : 318 MiB (95%)
    Writing library : TMPGEnc XPress 4.7.8.309
  Audio #128
    ID : 128 (0x80)
    Format : AC-3
    Format/Info : Audio Coding 3
    Mode extension : CM (complete main)
    Duration : 3mn 28s
    Bit rate mode : Constant
    Bit rate : 448 Kbps
    Channel(s) : 2 channels
    Channel positions : Front: L R
    Sampling rate : 48.0 KHz
    Bit depth : 16 bits
    Stream size : 11.1 MiB (3%)

下载地址:
游客,如果你要查看本帖隐藏内容请回复

Rank: 8Rank: 8

UID
3865 
积分
13150 
威望
43  
磨币
217  
经典水果老虎机
12250 
2#
发表于 2011-10-24 22:46 |只看该作者
好简单的歌名啊
真要检索还不怎么好找呢

Rank: 1

UID
102910 
积分
威望
0  
磨币
0  
经典水果老虎机
1 
3#
发表于 2011-10-27 02:27 |只看该作者
我喜欢rainbow的歌曲,迷人啊

Rank: 2

UID
88432 
积分
62 
威望
0  
磨币
0  
经典水果老虎机
62 
4#
发表于 2011-10-27 22:03 |只看该作者
i like it

Rank: 1

UID
110396 
积分
威望
0  
磨币
0  
经典水果老虎机
5 
5#
发表于 2011-11-16 22:06 |只看该作者
mmmmmmmmmmmmmmmmmmmmmmmmmmmm

Rank: 1

UID
112115 
积分
10 
威望
0  
磨币
0  
经典水果老虎机
10 
6#
发表于 2011-11-20 20:04 |只看该作者
很是不错的一个女团啊啊啊啊啊啊啊啊啊啊啊

Rank: 3Rank: 3

UID
72685 
积分
1524 
威望
0  
磨币
189  
经典水果老虎机
1547 
7#
发表于 2011-11-27 21:00 |只看该作者
下来收藏了慢慢听

Rank: 2

UID
116504 
积分
45 
威望
0  
磨币
0  
经典水果老虎机
54 
8#
发表于 2011-12-3 10:20 |只看该作者
谢谢楼主分享!

Rank: 1

UID
138103 
积分
威望
0  
磨币
0  
经典水果老虎机
5 
9#
发表于 2012-1-17 09:41 |只看该作者
这个好  超级喜欢

Rank: 1

UID
145208 
积分
威望
0  
磨币
0  
经典水果老虎机
1 
10#
发表于 2012-2-12 20:02 |只看该作者
找了半天

Rank: 1

UID
147099 
积分
威望
0  
磨币
0  
经典水果老虎机
1 
11#
发表于 2012-2-17 15:40 |只看该作者
楼主表述之事与本人无关,只是本着“看贴回贴,繁荣网络、利人利己”的原则,为“保增长、扩内需、调结构,促民生”作出贡献

Rank: 2

UID
102812 
积分
61 
威望
0  
磨币
30  
经典水果老虎机
168 
12#
发表于 2012-2-20 14:11 |只看该作者
UIYUIYI

Rank: 1

UID
151003 
积分
威望
0  
磨币
10  
经典水果老虎机
48 
13#
发表于 2012-2-28 14:13 |只看该作者
看看效果.........

Rank: 1

UID
106484 
积分
18 
威望
0  
磨币
14  
经典水果老虎机
22 
14#
发表于 2012-3-2 07:56 |只看该作者
谢谢楼主分享!

Rank: 2

UID
17727 
积分
434 
威望
0  
磨币
153  
经典水果老虎机
579 
15#
发表于 2012-3-2 09:07 |只看该作者
008出品,当属精品!感谢分享!
‹ 上一主题|下一主题

公告 关闭


密码找回

最近发现有少量会员帐号无法登陆,经后台核实后可申请找回密码。 回复请提供帐号及常用邮箱一个。 请将以上信息发送至imoofeel@126.com


查看

Archiver|磨坊高品质音乐论坛 - MOOFEEL.COM

GMT+8, 2018-10-19 19:02 , Processed in 0.044986 second(s), 17 queries .

Powered by-无损音乐 X3.1

© 2001-2010 Moofeel Inc.

本站所有数据均来自网友分享,本站不提供下载,内容如侵犯您的权益请联系:imoofeel@126.com,我们会第一时间删除。

博聚网