磨坊高品质音乐论坛 - 提供各种无损音乐下载

 

 

搜索
磨坊高品质音乐论坛 - 提供各种无损音乐下载 论坛 高清MV交流区 《生きる》alan[1080I/514MB/MPG][百度云]
查看: 1704|回复: 29
go

[外文] 《生きる》alan[1080I/514MB/MPG][百度云] [复制链接]

Rank: 24Rank: 24Rank: 24Rank: 24Rank: 24Rank: 24

UID
2654 
积分
34662 
威望
3244  
磨币
8661  
经典水果老虎机
20062 

版主专用勋章 社区巡警勋章 音乐宗师勋章 SB会员专用勋章 摩羯座

1#
发表于 2011-12-29 18:51 |只看该作者 |倒序浏览 |打印
本帖最后由 changshu008 于 2015-10-30 14:57 编辑

MV名称:生きる
歌手:alan
资源格式:MPG




E:\MV\moofeel.com_alan - 生きる.mpg
  General
    Complete name : E:\MV\moofeel.com_alan - 生きる.mpg
    Format : MPEG-PS
    File size : 514 MiB
    Duration : 5mn 24s
    Overall bit rate : 13.3 Mbps
    Writing library : encoded by TMPGEnc 4.0 XPress Version. 4.7.8.309
  Video #224
    ID : 224 (0xE0)
    Format : MPEG Video
    Format version : Version 2
    Format profile : Main@High
    Format settings, BVOP : Yes
    Format settings, Matrix : Default
    Format settings, GOP : M=3, N=18
    Duration : 5mn 24s
    Bit rate mode : Variable
    Bit rate : 12.6 Mbps
    Nominal bit rate : 20.0 Mbps
    Width : 1 440 pixels
    Height : 1 080 pixels
    Display aspect ratio : 16:9
    Frame rate : 29.970 fps
    Standard : NTSC
    Color space : YUV
    Chroma subsampling : 4:2:0
    Bit depth : 8 bits
    Scan type : Interlaced
    Scan order : Top Field First
    Bits/(Pixel*Frame) : 0.270
    Stream size : 487 MiB (95%)
    Writing library : TMPGEnc XPress 4.7.8.309
  Audio #128
    ID : 128 (0x80)
    Format : AC-3
    Format/Info : Audio Coding 3
    Mode extension : CM (complete main)
    Duration : 5mn 24s
    Bit rate mode : Constant
    Bit rate : 448 Kbps
    Channel(s) : 2 channels
    Channel positions : Front: L R
    Sampling rate : 48.0 KHz
    Bit depth : 16 bits
    Stream size : 17.4 MiB (3%)

下载地址:
游客,如果你要查看本帖隐藏内容请回复

Rank: 8Rank: 8

UID
3865 
积分
13150 
威望
43  
磨币
217  
经典水果老虎机
12250 
2#
发表于 2011-12-29 19:05 |只看该作者
看看美女也不错,先顶了

Rank: 3Rank: 3

UID
72685 
积分
1524 
威望
0  
磨币
189  
经典水果老虎机
1547 
3#
发表于 2011-12-31 09:17 |只看该作者
画面很美,下啦

Rank: 1

UID
149883 
积分
威望
0  
磨币
0  
经典水果老虎机
14 
4#
发表于 2012-2-24 23:01 |只看该作者
很不错

Rank: 1

UID
166307 
积分
威望
0  
磨币
0  
经典水果老虎机
12 
5#
发表于 2012-3-31 13:07 |只看该作者
还是阿兰漂亮啊,感谢楼主分享,辛苦了。

Rank: 2

UID
347575 
积分
72 
威望
0  
磨币
0  
经典水果老虎机
70 
6#
发表于 2013-1-13 12:46 |只看该作者
好地方,看看MV..

Rank: 2

UID
50540 
积分
279 
威望
0  
磨币
20  
经典水果老虎机
270 
7#
发表于 2013-1-24 12:48 |只看该作者
谢谢楼主分享

Rank: 2

UID
399419 
积分
162 
威望
0  
磨币
0  
经典水果老虎机
160 
8#
发表于 2013-3-31 16:06 |只看该作者
日韩的没得说

Rank: 2

UID
382663 
积分
118 
威望
0  
磨币
0  
经典水果老虎机
116 
9#
发表于 2013-3-31 17:28 |只看该作者
dddddddddddddd

Rank: 2

UID
79096 
积分
111 
威望
0  
磨币
1351  
经典水果老虎机
90 
10#
发表于 2013-4-4 15:32 |只看该作者
好东西,收下先

Rank: 2

UID
79096 
积分
111 
威望
0  
磨币
1351  
经典水果老虎机
90 
11#
发表于 2013-4-6 18:02 |只看该作者
下载先

Rank: 2

UID
79096 
积分
111 
威望
0  
磨币
1351  
经典水果老虎机
90 
12#
发表于 2013-4-6 18:02 |只看该作者
下载先

Rank: 2

UID
339122 
积分
261 
威望
0  
磨币
237  
经典水果老虎机
257 
13#
发表于 2013-4-6 18:39 |只看该作者
谢谢分享

Rank: 2

UID
304711 
积分
317 
威望
0  
磨币
0  
经典水果老虎机
269 
14#
发表于 2013-4-6 18:54 |只看该作者
找一个最爱的深爱的想爱的亲爱的人

Rank: 2

UID
438059 
积分
297 
威望
0  
磨币
0  
经典水果老虎机
296 
15#
发表于 2013-8-11 00:39 |只看该作者
thanks for sharing
‹ 上一主题|下一主题

公告 关闭


密码找回

最近发现有少量会员帐号无法登陆,经后台核实后可申请找回密码。 回复请提供帐号及常用邮箱一个。 请将以上信息发送至imoofeel@126.com


查看

Archiver|磨坊高品质音乐论坛 - MOOFEEL.COM

GMT+8, 2018-10-19 18:43 , Processed in 0.041656 second(s), 17 queries .

Powered by-无损音乐 X3.1

© 2001-2010 Moofeel Inc.

本站所有数据均来自网友分享,本站不提供下载,内容如侵犯您的权益请联系:imoofeel@126.com,我们会第一时间删除。

博聚网